"Принцесса Сахарок" реж. Нишиура Масаки 1, 2 части - скачать

Модераторы: G. Samsa, Владо Иреш

"Принцесса Сахарок" реж. Нишиура Масаки 1, 2 части - скачать

Непрочитанное сообщение admin » Пт ноя 27, 2015 9:59 am

Спасибо Тете Кошке!

magnet:?xt=urn:btih:51B9B69157C060BBFD2068DE2831CC89E9DDB7F7&tr=http%3A%2F%2Fbt3.rutracker.cc%2Fann%3Fmagnet
1 часть.

Принцесса "Сахарок" / Anmitsu Himepic Год выпуска: 2008
Страна: Япония
Жанр: Сказка, приключение, комедия
Продолжительность: 1 ч. 36 мин.
Перевод: Субтитры (мои)
Режиссер: Нишиура Масаки
Присутствует хардсаб.
Этот фильм-сказка о непослушной принцессе, мечтающей найти истинную любовь.
Чтобы увидеть мир за стенами дворца и найти своего принца, она сбегает из дома.
Качество: DVDrip
Формат: AVI
Видео: MPEG4 Video 704x396
Аудио: MPEG Layer-3 192 кбит/ сек


2 часть:

magnet:?xt=urn:btih:53C037D85AC72A3726C7964529207C40BEA7FA9B&dn=Anmitsu%20Hime%202%20%5bSP%5d%20%282009.01.11%20704x396%29.avi

Вторая часть впечатляет количеством разодетых в кимоно трансвеститов и наличием Аои Миядзаки. Субтитры английские.

медиаинфо:
Скрытый текст:
Format : AVI
Format/Info : Audio Video Interleave
File size : 800 MiB
Duration : 1h 36mn
Overall bit rate mode : Variable
Overall bit rate : 1 158 Kbps
Movie name : Anmitsu Hime 2 2009 Special SD
Director : SARS-Fansubs.com
Subject : Anmitsu Hime 2 2009 Special SD
Writing application : Nandub v1.0rc2
Writing library : Nandub build 1852/release

Video
ID : 0
Format : MPEG-4 Visual
Format profile : Advanced Simple@L5
Format settings, BVOP : 2
Format settings, QPel : No
Format settings, GMC : No warppoints
Format settings, Matrix : Default (H.263)
Muxing mode : Packed bitstream
Codec ID : XVID
Codec ID/Hint : XviD
Duration : 1h 36mn
Bit rate : 1 013 Kbps
Width : 704 pixels
Height : 396 pixels
Display aspect ratio : 16:9
Frame rate : 29.970 fps
Color space : YUV
Chroma subsampling : 4:2:0
Bit depth : 8 bits
Scan type : Progressive
Compression mode : Lossy
Bits/(Pixel*Frame) : 0.121
Stream size : 700 MiB (88%)
Writing library : XviD 1.2.1 (UTC 2008-12-04)

Audio
ID : 1
Format : MPEG Audio
Format version : Version 1
Format profile : Layer 3
Mode : Joint stereo
Mode extension : MS Stereo
Codec ID : 55
Codec ID/Hint : MP3
Duration : 1h 36mn
Bit rate mode : Variable
Bit rate : 128 Kbps
Channel(s) : 2 channels
Sampling rate : 48.0 KHz
Compression mode : Lossy
Stream size : 90.1 MiB (11%)
Alignment : Aligned on interleaves
Interleave, duration : 24 ms (0.72 video frame)
Interleave, preload duration : 135 ms
Writing library : LAME3.90.
Encoding settings : -m j -V 4 -q 2 -lowpass 17.6 --abr 128


Anmitsu Hime (яп. あんみつ姫 аммицу химэ?, «Принцесса Сахарок») — манга, созданная японским автором Сёсукэ Кураканэ и выходившая в японском журнале Shojo с мая 1949 по апрель 1955. Позднее был выпущен ремейк манги от Идзуми Такэмото.

По мотивам Anmitsu Hime было снято два телесериала, один транслировался в 1958—1960 годах (главную роль исполнила актриса Мисао Накахара), а другой — с 2008 года, роль Аммицу в нём исполнила Мао Иноуэ.[1] На студии Studio Pierrot был сделан одноимённый аниме-сериал из 51 серии. Он был показан на телеканале Fuji TV в 1986—1987 годах.[2] Музыку к нему написал Хироси Огасавара.[3]
Вложения
Anmitsu Hime 2 [SP] (2009.01.11 704x396).avi.torrent
(15.92 КБ) Скачиваний: 36
Обсуждайте кино, а не друг друга.
Аватара пользователя
admin
Site Admin
 
Сообщения: 8208
Зарегистрирован: Пт сен 14, 2012 6:50 am

Вернуться в Поговорим об азиатском кино

Обнаружены разумные существа

Сейчас этот форум просматривают: нет зарегистрированных пользователей и гости: 1